Skip to main content

Monks of Doom Live at Cicero's Basement Bar on 1991-10-01


Topics Live concert


Hieroglyphic, Riverbed, Visions From The Acid Couch, Blues on Sunday, The Traveler, Going South, instrumental, Follow The Queen, Cherry Blossom Baptism, Voodoo Vengeance, Turn it on Himself, Vaporize Your Crystals


Collection MonksofDoom
Band/Artist Monks of Doom
Venue Cicero's Basement Bar
Location Saint Louis MO

Source Stereo mic > Sony D3 > MCAS
Lineage MCAS > CAS/1 > SHN > FLAC
Taped by AL
Transferred by AS / TAS

Notes

(exact date unknown, but just before the release of Meridian)

mod1991-10-01t01 Hieroglyphic 5:49
mod1991-10-01t02 Riverbed 6:12
mod1991-10-01t03 Visions From The Acid Couch (instrumental) 3:12
mod1991-10-01t04 Blues on Sunday 1:44
mod1991-10-01t05 The Traveler 5:35
mod1991-10-01t06 Going South 9:20
mod1991-10-01t07 instrumental 4:41
mod1991-10-01t08 Follow The Queen 2:26
mod1991-10-01t09 Cherry Blossom Baptism 7:45
mod1991-10-01t10 Voodoo Vengeance 6:19
mod1991-10-01t11 Turn it on Himself 4:55
mod1991-10-01t12 Vaporize Your Crystals 3:06

master cassette flip at 2:57 of t10

recorded 1991 by Allan L. on a Sony D3, with the supplied stereo mic

transcribed 2002 by Aaron Stoker off a first generation cassette from the master

length expanded size cdr WAVE problems filename
5:49.64 61714172 --- -- ---xx mod1991-10-01t01.flac
6:12.21 65670236 --- -- ---xx mod1991-10-01t02.flac
3:12.46 33977036 --- -- ---xx mod1991-10-01t03.flac
1:44.61 18489116 --- -- ---xx mod1991-10-01t04.flac
5:35.18 59136380 --- -- ---xx mod1991-10-01t05.flac
9:20.66 98939276 --- -- ---xx mod1991-10-01t06.flac
4:41.67 49726028 --- -- ---xx mod1991-10-01t07.flac
2:26.44 25857932 --- -- ---xx mod1991-10-01t08.flac
7:45.17 82066028 --- -- ---xx mod1991-10-01t09.flac
6:19.37 66942668 --- -- ---xx mod1991-10-01t10.flac
4:55.37 52125068 --- -- ---xx mod1991-10-01t11.flac
3:06.62 32957432 -b- -- ---xx mod1991-10-01t12.flac
61:11.15 647601372 B (totals for 12 files, 0.6405 overall compression ratio)

Reviews

There are no reviews yet. Be the first one to write a review.
PEOPLE ALSO FOUND
Monks of Doom
by Monks of Doom
780
1
3
( 3 reviews )
Source: Neumann KM-140 > Beyer MV100 > Sony SBM-1 > Sony D8
Monks of Doom
by Monks of Doom
2,280
1
0
Source: Stereo mic > Sony D3 > MCAS
Monks of Doom
by Monks of Doom
7,343
2
3
( 3 reviews )
Source: AUD > MD
Monks of Doom
by Monks of Doom
4,887
2
2
( 2 reviews )
Source: AUD > MD
Monks of Doom
by Monks of Doom
1,366
1
0
Source: SBD?
Monks of Doom
by Monks of Doom
1,273
1
0
Source: AKG C522MS ("The Pickle Mic") > Grace Lunatec V3 (mic preamp & A>D converter) + Soundcraft 800B SBD > Edirol R44 > WAVs @48kHz/24bit
Monks of Doom
by Monks of Doom
145
1
0
Source: DPA 4061 mics > Sony PCM-D50 > WAV @48/24
Monks of Doom
by Monks of Doom
2,822
1
2
( 2 reviews )
Source: SBD?
Monks of Doom
by Monks of Doom
22,146
1
3
( 3 reviews )
Source: Realistic 33-1063 omni mic > Marantz PMD430 cassette deck w/ Dolby B NR
Monks of Doom
by Monks of Doom
169
1
0
Source: DPA 4061 mics > Sony PCM-D50 > WAV @48/24